osu file format v14

[General]
AudioFilename: AK x LYNX ft. Veela - Virtual Paradise.mp3
AudioLeadIn: 1500
PreviewTime: 41321
Countdown: 0
SampleSet: Soft
StackLeniency: 0.7
Mode: 0
LetterboxInBreaks: 0
WidescreenStoryboard: 0

[Editor]
Bookmarks: 11063,22097,44166,66235,67614,88304,91063
DistanceSpacing: 1.3
BeatDivisor: 4
GridSize: 32
TimelineZoom: 1.200002

[Metadata]
Title:Virtual Paradise
TitleUnicode:Virtual Paradise
Artist:AK X LYNX ft. Veela
ArtistUnicode:AK X LYNX ft. Veela
Creator:Milan-
Version:Insane
Source:
Tags:appleeaterx drum and bass dnb liquidfunk xkito chillout
BeatmapID:700546
BeatmapSetID:313843

[Difficulty]
HPDrainRate:7
CircleSize:4
OverallDifficulty:8
ApproachRate:9
SliderMultiplier:1.7
SliderTickRate:2

[Events]
//Background and Video events
0,0,"bg.jpg",0,0
//Break Periods
//Storyboard Layer 0 (Background)
//Storyboard Layer 1 (Fail)
//Storyboard Layer 2 (Pass)
//Storyboard Layer 3 (Foreground)
//Storyboard Sound Samples

[TimingPoints]
1408,344.827586206897,4,2,1,30,1,0
22097,-125,4,2,1,35,0,0
44166,-100,4,2,1,52,0,0
66235,-125,4,2,1,40,0,0
67614,-100,4,2,1,52,0,0
91063,-100,4,2,1,10,0,0

[Colours]
Combo1 : 180,71,220
Combo2 : 31,214,140
Combo3 : 66,147,236
Combo4 : 233,75,80

[HitObjects]
378,140,21925,5,0,0:0:0:0:
378,140,22097,2,0,L|388:224,1,68,2|0,0:0|0:0,0:0:0:0:
363,352,22442,1,2,0:0:0:0:
331,269,22614,1,0,0:0:0:0:
418,282,22787,1,0,0:0:0:0:
418,282,23132,2,0,L|493:277,1,68,,,0:0:0:0:
386,207,23476,2,0,L|461:202,1,68,,,0:0:0:0:
320,135,23821,2,0,B|284:167|280:220|306:257,2,136,2|2|0,0:0|0:0|0:0,0:0:0:0:
405,111,24683,1,0,0:0:0:0:
453,203,24856,6,0,L|386:207,1,68,,,0:0:0:0:
234,115,25373,1,0,0:0:0:0:
234,115,25718,1,0,0:0:0:0:
234,115,26063,2,0,B|236:196|244:275,2,136,,,0:0:0:0:
315,80,26925,2,0,L|318:147,1,68,0|0,0:0|0:0,0:0:0:0:
234,115,27270,2,0,L|231:48,1,68,,,0:0:0:0:
336,3,27614,6,0,L|342:145,1,136,2|2,0:0|0:0,0:0:0:0:
313,270,28132,1,0,0:0:0:0:
382,215,28304,1,0,0:0:0:0:
234,115,28649,1,0,0:0:0:0:
234,115,28994,2,0,L|237:189,1,68,,,0:0:0:0:
158,81,29339,2,0,L|161:155,1,68,2|0,0:0|0:0,0:0:0:0:
77,50,29683,2,0,B|96:2|152:-19|198:4,1,136,2|0,0:0|0:0,0:0:0:0:
268,42,30201,1,0,0:0:0:0:
236,182,30373,6,0,L|234:115,1,68,0|0,0:0|0:0,0:0:0:0:
274,36,30718,1,0,0:0:0:0:
158,81,30890,2,0,B|131:88|104:86|80:77,1,68,0|0,0:0|0:0,0:0:0:0:
280,31,31235,2,0,B|307:24|334:26|358:35,1,68,0|0,0:0|0:0,0:0:0:0:
496,106,31580,2,0,B|445:85|390:97|352:130,2,136,0|0|0,0:0|0:0|0:0,0:0:0:0:
281,270,32614,2,0,B|240:296|192:299|151:283,1,136,0|0,0:0|0:0,0:0:0:0:
83,188,33132,6,0,L|73:269,1,68,2|0,0:0|0:0,0:0:0:0:
9,142,33476,2,0,L|-1:223,1,68,0|0,0:0|0:0,0:0:0:0:
154,144,33821,1,0,0:0:0:0:
154,144,34166,2,0,L|226:141,1,68,,,0:0:0:0:
173,63,34511,2,0,L|245:60,1,68,0|0,0:0|0:0,0:0:0:0:
303,164,34856,2,0,L|144:167,2,136,2|2|0,0:0|0:0|0:0,0:0:0:0:
387,190,35718,1,0,0:0:0:0:
320,87,35890,5,0,0:0:0:0:
328,247,36063,2,0,L|334:315,1,68,,,0:0:0:0:
462,208,36408,2,0,B|471:171|454:135|423:115|391:113,1,136,,,0:0:0:0:
303,164,36925,1,0,0:0:0:0:
328,247,37097,2,0,L|334:315,1,68,,,0:0:0:0:
387,190,37442,2,0,L|374:32,2,136,,,0:0:0:0:
301,165,38304,2,0,L|295:97,1,68,0|0,0:0|0:0,0:0:0:0:
187,8,38649,5,2,0:0:0:0:
215,91,38821,2,0,L|220:158,1,68,0|0,0:0|0:0,0:0:0:0:
139,214,39166,2,0,L|127:78,1,136,2|0,0:0|0:0,0:0:0:0:
187,8,39683,1,0,0:0:0:0:
127,78,39856,2,0,B|103:83|80:77|62:64,1,68,0|0,0:0|0:0,0:0:0:0:
187,8,40201,2,0,B|211:3|233:9|251:22,1,68,0|0,0:0|0:0,0:0:0:0:
207,116,40545,2,0,B|182:165|120:180|75:149,1,136,,,0:0:0:0:
127,78,41063,1,0,0:0:0:0:
207,116,41235,1,0,0:0:0:0:
290,34,41408,6,0,B|324:-1|376:-6|414:18,1,136,2|0,0:0|0:0,0:0:0:0:
484,73,41925,2,0,B|449:107|397:111|359:88,1,136,2|0,0:0|0:0,0:0:0:0:
290,34,42442,1,0,0:0:0:0:
275,146,42614,2,0,L|286:284,1,136,2|0,0:0|0:0,0:0:0:0:
285,281,43304,1,2,0:0:0:0:
285,281,43649,5,2,0:0:0:0:
275,146,43821,1,0,0:0:0:0:
154,226,43994,1,0,0:0:0:0:
292,287,44166,6,0,B|335:286|376:276,1,85,4|0,0:3|0:0,0:0:0:0:
512,202,44511,1,8,0:0:0:0:
430,141,44683,1,0,0:0:0:0:
450,335,44856,2,0,B|454:292|450:250,1,85,0|0,0:0|0:0,0:0:0:0:
333,164,45201,1,10,0:0:0:0:
430,141,45373,1,0,0:0:0:0:
328,252,45545,6,0,B|298:251|272:234|258:210,1,85,2|0,0:0|0:0,0:0:0:0:
195,60,45890,1,8,0:0:0:0:
174,160,46063,1,0,0:0:0:0:
333,164,46235,1,0,0:0:0:0:
312,64,46408,1,0,0:0:0:0:
430,141,46580,2,0,B|455:168|465:202|461:235,1,85,10|0,0:0|0:0,0:0:0:0:
361,364,46925,6,0,B|331:311|342:247|381:207,1,170,2|8,0:0|0:0,0:0:0:0:
456,297,47442,1,0,0:0:0:0:
430,141,47614,1,0,0:0:0:0:
505,210,47787,1,0,0:0:0:0:
482,53,47959,2,0,B|448:36|411:37|380:51,1,85,10|0,0:0|0:0,0:0:0:0:
347,149,48304,6,0,B|376:157|405:152|429:140,1,85,2|0,0:0|0:0,0:0:0:0:
276,18,48649,2,0,L|268:102,1,85,8|0,0:0|0:0,0:0:0:0:
187,200,48994,2,0,L|169:27,1,170,0|8,0:0|0:0,0:0:0:0:
169,30,49511,1,0,0:0:0:0:
276,188,49683,6,0,B|276:218|265:245|248:266,1,85,4|0,0:3|0:0,0:0:0:0:
102,254,50028,1,8,0:0:0:0:
187,200,50201,1,0,0:0:0:0:
300,357,50373,2,0,B|268:367|236:368|207:362,1,85,0|0,0:0|0:0,0:0:0:0:
102,254,50718,1,10,0:0:0:0:
116,354,50890,1,0,0:0:0:0:
187,200,51063,6,0,B|186:128|186:128|191:104|191:104|190:23,1,170,2|8,0:0|0:0,0:0:0:0:
190,30,51580,1,0,0:0:0:0:
271,162,51752,1,0,0:0:0:0:
310,67,51925,1,0,0:0:0:0:
381,206,52097,2,0,B|415:216|450:211|478:196,1,85,10|0,0:0|0:0,0:0:0:0:
393,62,52442,6,0,B|359:52|324:57|296:72,1,85,2|0,0:0|0:0,0:0:0:0:
271,162,52787,1,8,0:0:0:0:
365,200,52959,1,0,0:0:0:0:
250,262,53132,1,0,0:0:0:0:
271,162,53304,1,0,0:0:0:0:
346,299,53476,2,0,B|354:328|354:357|346:384,1,85,10|0,0:0|0:0,0:0:0:0:
178,331,53821,6,0,B|140:294|136:236|164:191|206:172,1,170,2|8,0:0|0:0,0:0:0:0:
250,262,54339,1,0,0:0:0:0:
178,330,54511,2,0,B|151:344|121:346|95:338,1,85,,,0:0:0:0:
0,251,54856,1,0,0:0:0:0:
129,263,55028,1,0,0:0:0:0:
18,157,55201,6,0,L|17:345,1,170,4|8,0:3|0:0,0:0:0:0:
17,326,55718,1,0,0:0:0:0:
129,263,55890,2,0,B|156:249|185:247|211:255,1,85,0|0,0:0|0:0,0:0:0:0:
338,355,56235,2,0,B|309:362|279:359|254:347,1,85,8|0,0:0|0:0,0:0:0:0:
129,263,56580,6,0,L|129:93,1,170,0|8,0:0|0:0,0:0:0:0:
129,93,57097,1,0,0:0:0:0:
268,176,57270,2,0,L|266:260,1,85,0|0,0:0|0:0,0:0:0:0:
228,89,57614,2,0,L|226:4,1,85,8|0,0:0|0:0,0:0:0:0:
361,134,57959,5,4,0:3:0:0:
361,134,58132,1,0,0:0:0:0:
268,176,58304,1,8,0:0:0:0:
268,176,58476,1,0,0:0:0:0:
313,40,58649,2,0,B|340:26|370:24|396:32,1,85,0|0,0:0|0:0,0:0:0:0:
268,176,58994,2,0,B|239:183|209:180|184:168,1,85,8|0,0:0|0:0,0:0:0:0:
361,134,59339,6,0,L|368:314,1,170,0|8,0:0|0:0,0:0:0:0:
367,303,59856,1,0,0:0:0:0:
452,247,60028,2,0,L|449:155,1,85,0|0,0:0|0:0,0:0:0:0:
286,256,60373,2,0,L|288:340,1,85,8|0,0:0|0:0,0:0:0:0:
365,185,60718,6,0,B|328:146|273:137|225:159|199:196,1,170,4|8,0:3|0:0,0:0:0:0:
286,256,61235,1,0,0:0:0:0:
202,359,61408,2,0,L|199:274,1,85,0|0,0:0|0:0,0:0:0:0:
288,171,61752,2,0,L|285:255,1,85,8|0,0:0|0:0,0:0:0:0:
128,350,62097,6,0,L|121:152,1,170,0|8,0:0|0:0,0:0:0:0:
147,41,62614,1,0,0:0:0:0:
71,110,62787,2,0,B|113:154|183:152|223:108,1,170,0|8,0:0|0:0,0:0:0:0:
147,41,63304,1,0,0:0:0:0:
282,174,63476,6,0,B|301:150|307:121|302:94,1,85,4|0,0:3|0:0,0:0:0:0:
163,170,63821,2,0,B|157:199|165:228|183:249,1,85,8|0,0:0|0:0,0:0:0:0:
222,108,64166,1,0,0:0:0:0:
222,108,64339,1,0,0:0:0:0:
126,71,64511,1,8,0:0:0:0:
126,71,64683,1,0,0:0:0:0:
257,37,64856,6,0,L|343:35,1,85,,,0:0:0:0:
396,151,65201,2,0,L|310:149,1,85,8|0,0:0|0:0,0:0:0:0:
462,71,65545,1,0,0:0:0:0:
498,166,65718,1,0,0:0:0:0:
360,56,65890,1,0,0:0:0:0:
396,151,66063,1,0,0:0:0:0:
257,37,66235,5,4,0:3:0:0:
360,56,66580,1,2,0:0:0:0:
462,71,66925,1,2,0:0:0:0:
360,56,67270,5,2,0:0:0:0:
462,71,67442,1,0,0:0:0:0:
257,37,67614,5,4,0:3:0:0:
292,133,67787,2,0,L|286:221,1,85,0|8,0:0|0:0,0:0:0:0:
198,315,68132,2,0,L|185:145,1,170,0|0,0:0|0:0,0:0:0:0:
257,37,68649,1,8,0:0:0:0:
292,133,68821,6,0,B|316:159|352:166|383:157,2,85,0|2|0,0:0|0:0|0:0,0:0:0:0:
445,93,69339,2,0,B|467:116|475:148|470:177,1,85,8|0,0:0|0:0,0:0:0:0:
360,56,69683,2,0,B|388:13|440:-5|489:9|520:40,1,170,0|8,0:0|0:0,0:0:0:0:
369,160,70201,6,0,B|339:163|311:152|292:133,1,85,0|2,0:0|0:0,0:0:0:0:
445,93,70545,2,0,B|467:116|475:148|470:177,1,85,0|8,0:0|0:0,0:0:0:0:
406,279,70890,1,0,0:0:0:0:
369,160,71063,1,0,0:0:0:0:
369,160,71235,1,0,0:0:0:0:
311,244,71408,2,0,B|276:261|238:261|205:248,1,85,8|0,0:0|0:0,0:0:0:0:
369,160,71752,5,4,0:3:0:0:
396,297,71925,1,0,0:0:0:0:
258,177,72097,2,0,B|244:121|254:65,1,85,10|0,0:0|0:0,0:0:0:0:
354,0,72442,2,0,B|356:43|346:84,1,85,2|0,0:0|0:0,0:0:0:0:
197,18,72787,2,0,B|145:12|96:23,1,85,10|0,0:0|0:0,0:0:0:0:
9,135,73132,5,2,0:0:0:0:
9,135,73304,2,0,B|52:141|93:136,1,85,0|8,0:0|0:0,0:0:0:0:
224,101,73649,2,0,B|288:75|359:113|374:180,1,170,0|0,0:0|0:0,0:0:0:0:
327,251,74166,2,0,B|298:243|278:221|270:194,1,85,8|0,0:0|0:0,0:0:0:0:
435,204,74511,5,2,0:0:0:0:
416,304,74683,1,0,0:0:0:0:
366,158,74856,1,8,0:0:0:0:
347,58,75028,1,0,0:0:0:0:
269,193,75201,2,0,L|287:297,1,85,0|0,0:0|0:0,0:0:0:0:
174,201,75545,2,0,B|167:154|193:110|237:92|278:99,1,170,8|2,0:0|0:0,0:0:0:0:
366,158,76063,5,0,0:0:0:0:
283,276,76235,2,0,L|269:193,1,85,8|0,0:0|0:0,0:0:0:0:
380,74,76580,2,0,L|365:157,1,85,0|0,0:0|0:0,0:0:0:0:
279,99,76925,1,0,0:0:0:0:
356,237,77097,1,0,0:0:0:0:
279,99,77270,6,0,B|227:76|171:77,1,85,4|0,0:3|0:0,0:0:0:0:
124,192,77614,2,0,B|167:187|205:170,1,85,10|0,0:0|0:0,0:0:0:0:
40,102,77959,2,0,B|31:195|41:285,1,170,2|10,0:0|0:0,0:0:0:0:
39,271,78476,1,0,0:0:0:0:
125,107,78649,5,2,0:0:0:0:
125,107,78821,2,0,B|122:150|123:192,1,85,0|8,0:0|0:0,0:0:0:0:
173,281,79166,1,0,0:0:0:0:
240,147,79339,1,0,0:0:0:0:
265,245,79511,1,0,0:0:0:0:
324,97,79683,2,0,B|351:83|381:83|407:92,1,85,8|0,0:0|0:0,0:0:0:0:
240,147,80028,6,0,B|215:101|226:45|264:9|309:0,1,170,4|8,0:3|0:0,0:0:0:0:
324,97,80545,1,0,0:0:0:0:
194,54,80718,2,0,L|100:56,1,85,0|0,0:0|0:0,0:0:0:0:
240,147,81063,1,8,0:0:0:0:
240,147,81235,1,0,0:0:0:0:
112,139,81408,6,0,L|27:140,1,85,4|0,0:3|0:0,0:0:0:0:
165,230,81752,2,0,L|249:231,1,85,8|0,0:0|0:0,0:0:0:0:
117,308,82097,2,0,L|112:139,1,170,0|8,0:0|0:0,0:0:0:0:
127,37,82614,1,0,0:0:0:0:
240,147,82787,5,4,0:3:0:0:
240,147,82959,1,0,0:0:0:0:
127,37,83132,2,0,L|128:121,1,85,8|0,0:0|0:0,0:0:0:0:
39,241,83476,2,0,L|37:156,2,85,0|0|8,0:0|0:0|0:0,0:0:0:0:
91,329,83994,1,0,0:0:0:0:
200,231,84166,6,0,L|289:222,1,85,4|0,0:3|0:0,0:0:0:0:
175,337,84511,2,0,L|86:328,1,85,8|0,0:0|0:0,0:0:0:0:
280,313,84856,2,0,L|369:304,1,85,0|0,0:0|0:0,0:0:0:0:
481,234,85201,1,8,0:0:0:0:
462,334,85373,1,0,0:0:0:0:
379,192,85545,6,0,L|376:21,1,170,4|8,0:3|0:0,0:0:0:0:
462,77,86063,1,0,0:0:0:0:
276,47,86235,1,0,0:0:0:0:
376,22,86408,1,0,0:0:0:0:
288,149,86580,1,8,0:0:0:0:
188,124,86752,1,0,0:0:0:0:
386,127,86925,6,0,L|385:211,1,85,2|0,0:0|0:0,0:0:0:0:
189,208,87270,2,0,L|188:124,1,85,8|0,0:0|0:0,0:0:0:0:
292,251,87614,1,2,0:0:0:0:
288,149,87787,1,0,0:0:0:0:
218,305,87959,1,2,0:0:0:0:
189,208,88132,1,0,0:0:0:0:
153,368,88304,5,4,0:3:0:0:
256,192,88476,12,0,91063,0:0:0:0:
